90s Club Nyc

The Authentic Source for. Get the latest music and trending news, from your favorite artists and bands. Composite assignment : These pictures fit in the fine art category. James lurked in the streets of Manhattan, leaving behind the remnants of fabulous parties. wav" WAVE TRACK 03 AUDIO INDEX 01 00:00:00 FILE "04. The Department is the staff arm of the Public Service Commission. (Montauk Hwy). 0 free concerts take place New York City right now! In addition, Club Free Time members get free tickets to the concerts which are not free for general public, but are free for our members: when a producer wants that special buzz of the 'full house' at a concert - Club Free Time members are welcomed for their enthusiasm and sophistication!. It is now a restaurant called Stillwaters. com or [email protected] You can also listen on your phone or tablet by searching for WHPC on the ‘iHeartRadio’ or ‘TuneIn’ apps, or on a smart speaker by asking it to “Play WHPC!”. Men Dry Stretch Easy Shorts. Additional Canal Maps:. FM Internet Radio - The Best Choice for Radio. 47th Street) This was Peter Gatien's 1992-'95 retread of an old theater that suddenly became home to the last gasp of the club kid movement. We are constantly trying to improve Club Revive. 8 in what appears to be a deep draft. 3 million people from 62 locations plus seven Adult Learning Centers and two Family Literacy Centers. REVOLT TV is a music cable network from Sean Combs dedicated to the creators of this generation. We are working with the artists to reschedule all shows, stay tuned for. Commercial Free Mondays on New York's Country 94. 25″ prestige “album” format. A hotel right in the heart of New York. 8584 - Open Fridays & Saturdays - 3 Levels of Entertainment. It’s all here at 3333 W Henrietta Rd Ste 90, Rochester, NY. 9065 S Monroe Street, Sandy UT 84070 ©2019 by Dev Tribe Designs. Louis Missouri USA. Find information about important alerts, 311 services, news, programs, events, government employment, the office of the Mayor and elected officials. Buy ONE book, get ONE FREE! 2 books for $19. A New York City judge on Thursday dismissed a claim by Donald Trump's brother that sought to halt the publication of a tell-all book by the president's niece, saying the court lacked jurisdiction in the case. See distance to other cities from Philadelphia – Pennsylvania – USA measured in kilometers (km), miles and nautical miles and their local time. Jenny Dembrow, the seminal Club Kid of downtown New York in the '90s, is now part of a different club: The Lower Eastside Girls Club. NEW YORK (AP) — Major League Baseball issued a 60-game schedule Tuesday night that will start July 23 or 24 in empty ballparks as the sport tries to push ahead amid the coronavirus pandemic. Official MapQuest website, find driving directions, maps, live traffic updates and road conditions. In March 2003, Bob Wojtowicz executed a 99 year lease for the upper 90 acres to create Natirar: The Farm, Cooking School, Mansion, Club and restaurant, Ninety Acres. Just in time for 4th of July parties, BJ's Wholesale Club is. The opening night party on November 9, 1983 was hosted by none other than Andy Warhol, and the club went on to host several other noteworthy guests: Cyndi Lauper, Marilyn Manson, 50 Cent, members. 's career in dance and electronic music goes back to the late 70's in the New York clubs and at the disco label Prelude. 3 million people from 62 locations plus seven Adult Learning Centers and two Family Literacy Centers. com - the #1 apartment listing website. Choose from thousands of hotel discounts & deals. Edmunds also has Used Chevrolet SSR pricing, MPG, specs, pictures, safety features, consumer reviews and more. Saved by the 90s is a national sensation that is bringing back the 90s with a huge interactive party, featuring a live 90s band that will blow your socks off!. NYGOP CHAIRMAN NICK LANGWORTHY JOINS PRESIDENT TRUMP IN ENDORSING CLAUDIA TENNEY FOR NY’S 22ND CONGRESSIONAL DISTRICT “Claudia has a proven track record of delivering results and being an effective champion for President Trump’s successful agenda” New York–June 19th…New York Republican Chairman Nick Langworthy today joined President Trump in endorsing Claudia Tenney for the. Stay at Hotel Pennsylvania from $104/night, Row NYC from $131/night, YOTEL New York from $156/night and more. I-95 New England Thruway Exits 8 (NYC Line) to 22 (CT State Line) Road Status: No Report Pavement Conditions: NA Weather Conditions: NA. Here is a selection of the best venues to hear live jazz, from the legendary to lesser known clubs. Located in the Chelsea section of Manhattan, it began as a roller skating rink and roller disco in 1978, founded by Steve Bauman, Richard Newhouse and Steve Greenberg. As Latin freestyle in the late 1980s and early 1990s gradually became superseded with house music, dance-pop, and regular hip hop on one front and Spanish-language pop music with marginal Latin freestyle influences on another, "harder strain" of house music originating in New York City was known to incorporate elements of Latin freestyle and the old school hip hop sound. Available Now! Takeout and Delivery are available Wednesday-Friday 4pm-9pm and Saturday-Sunday 2pm-9pm. Reviews on 80's and 90's Music Night Clubs in New York, NY - Pyramid Club, Retroclubnyc, Remixologists, Bembé, Bowery Electric, Quiet Events, The Boogie Room, M1-5 Lounge, Beauty Bar, House of Yes, bOb Bar, The Rub, Mylos Entertainment, The Fat Black Pussycat, Bar Nine, Gotham Comedy Club, Georgian House, Expressway Music, Session 73, One Step Beyond, Coney Island Baby, Shake Rattle N Roll. The plexiglas slide that took you from the balcony to the main floor was a jazzy touch, and there were some other sexy motifs to mirror Times Square aesthetics, but overall, the result. EVERY FRIDAY - Indie, Brit Pop, New Wave, Post-Punk, Dark Wave, 80s, 90s, Y2K Dance Party!. 9Round fitness is a specialized gym, fitness center & health club dedicated to circuit training with an emphasis on kickboxing fitness training. The Lincoln Motor Company has renewed its partnership with the New Jersey PGA through the end of the 2020 season. – June 2014) Wildlife Management Areas along the Canal (03/05/2014). 1970's--Cobra Lear: 7th Floor: 1874 Broadway: 18th Street: New York ? N. That 80's Bar - The World's Only All 80's Themed Nightclub & Bar - Open every Wednesday, Thursday, Friday and Saturday - 10555 Mills Ave. The Watertown Wolves continue to add to their roster for the 2020-21 season, adding forward Alexander Gregorich from the Battle Creek Rumble Bees in a dispersal draft. Space NYC is slated to hit Midtown, joining Pacha as another. The NY Kids Club is a private enrichment space committed to, physical, intellectual and social experiences for children from 8 weeks to 12 years old. Williston Park, NY (17 miles from New York City, NY) FiveStone is a high energy all pro party band playing the best of party rock, pop, top 40, dance, 80's, 90's, alternative and classic rock. The Mystic Music is a wedding, corporate events, private parties and Club Date Band performing in the Tri-State area: Long Island, NYC, NJ and CT. In his first season with the club, the Romanian appeared in 29 matches and scored 12 goals and had three assists throughout the season. com - the #1 apartment listing website. National Garden Clubs, Inc. Louis area) Fairway Market (15 stores, New York City area) Festival Foods (31 stores, Wisconsin) The Food Emporium (8 stores, New York City area) Food Town (32 stores, Houston, Texas) Foodland (32 stores, Hawaii). NY Pediatric and Adult Dentistry Welcome Video3 NY Pediatric Dentistry & Orthodontics/ 90 South Ridge Street, Rye Brook, NY 10573 / Pediatrics 914-925-1099. Directory and Interactive Maps of Gentlemen's Clubs and Strip Clubs (Stripclubs) across the Nation including address, hours, phone numbers, and website. White was the target of a Friars Club roast. Most entries include 80's music videos. WHERE IS THE FRIENDS APARTMENT BUILDING? It's located at 90 Bedford Street at the corner of Grove Street. Create New Account. We are in the midst of a Drag Race cold war. "For almost 90 years, Cosmopolitan Junior Soccer League. In town for a Buffalo Bills game? Our hotel is less than six miles from New Era Field, giving you easy access to tailgating and other game-day festivities. The Mystic Music is a wedding, corporate events, private parties and Club Date Band performing in the Tri-State area: Long Island, NYC, NJ and CT. Find out more here!. A Project of The Annenberg Public Policy Center. The Montclair Golf Club shall serve its members as a family oriented private Club. New York party promoter Michael Alig was released last week after serving 17 years in jail. Housed in a landmark building in the Historic District in the East Village, ’80s icons Debbie Harry and Madonna graced this iconic club with their presence. Now open on Thursday, Friday and Saturday nights, the spot features throwback music from the '70s, '80s and '90s and aims to be reminiscent of the bygone clubs of those eras. Make right onto Blue Point Ave. Through innovative classes, creative camps, one-of-a-kind birthday celebrations and events, our academic approach inspires each child’s inherent love of learning in a fun and energetic environment. Last 5 bands to register - Ryan Kiekel Metal, Electronic - Hamden, CT Top Down Rainbow Snake Show Alternative, Jazz/Blues - Lexington , KY Madeline Lew. He had a successful debut season with NYCFC, scoring the first and only hat-trick of 2019 vs. Transferred to the National Park Service …. Try everything from yoga to strength training to HIIT and more. 1960's: 1975: Steve Ostrow: Copacabana. Visit today!. My boyfriend and I will be in NYC next month, and I am wondering if there are any 90s themed bars or clubs? If anyone has any recommendations that would be great! Also appreciate recommendations on any clubs that play live music (cover bands, etc. Richie Havens and the Blues Project were weekly regulars. 300 West 125th Street New York, NY 10027 212-316-2500. Walgreens is your home for Pharmacy, Photo and Health & Wellness products. Contact Us 90 Colonial Drive, East Patchogue, NY 11772 Phone: (631) 289-2582 Fax: (631) 289-2584 Email: [email protected] The Holiday Cocktail Lounge. Event search form. At the Club! - SOLD OUT Third Eye Blind - Screamer Tour 2020 (CANCELLED) Saves The Day Mon 13 Jul Doors: 7 PM More Info This event has been cancelled. , 60 Columbus Circle, New York, New York, 10023. When clubs like CBGBs and Max's Kansas City ruled the scene and bands like Television, The Ramones, Blondie, Suicide and Patti Smith were its kings and queens. Bournemouth Pubs and Clubs of the 90's, Bournemouth. 90 Day Guest Account Be Our GUEST for 90-days Connect with other hams, customize your home page to see local events, clubs and news, receive E-Newsletters on topics you select, have the ARRL Letter delivered to your inbox. We provide the resources to help make informed decisions. Enjoy the Capital District’s largest dance floor, dazzling crystal chandeliers, repurposed grand vaults, 50 foot high ceilings, VIP red carpet entrance, available valet parking, high-speed Wi-Fi Internet, flat screen TVs and up lighting options to enhance any occasion. During the 1990s, photographer Steve Eichner documented the rowdy, over-the-top debauchery that was New York City's club scene and nightlife. The premium 90 faceted Crown of Light diamond is a stunning triumph of cutting expertise fused with ingenious design. I had really short hair and started blurring the line a bit. Private lot, picturesque wooded area w/beautiful landscaping (trees & flowers), spacious deck off kitchen & living room. sunset-harbour. Help Raise $300,000 in 3 Days We’ve cut our membership drive down from 8 days to 3 so we can get you back to the music faster. White was the target of a Friars Club roast. July 1, 2015. 204 Varick Street, New York, NY 10014 - 212. 8 in what appears to be a deep draft. So I've thought back on all the pomp and revelry and compiled a glittering list of the 13 greatest nightspots I've ever known in this town -- so far. Club Cache - 35 East 13th St, 2nd Fl, NYC - TxT: 917. Decade shortcuts. So, if you. Sep 04,2019 Volunteers Needed for TRFC Fun Day. Private clubs can choose to remain closed, so the ruling allows for groundskeepers and other essential services and you can play. Here's a summary of Major League Baseball's 2020 Operations Manual, as edited by. The number of advertisers on the alt-right site Breitbart. “We’ll do different styles of nights,” he said. Some of our bands do more than one tribute! So visit our package shows page to review those acts. Club owners insist that, unlike in the 1970s and 1980s, when dancers. He was one of two California high-school outfielders New York selected, the club also took Isaiah Greene 69th overall as compensation for losing Zack Wheeler in free agency. Provides information about club history, past performers, current show profiles, upcoming events and contact details. – June 2014) Wildlife Management Areas along the Canal (03/05/2014). Atlanta's Number One Hip-Hop Station!. This post will explain how you can find the apartment building used in the hit TV show Friends, which is a regular stop on the pay-what-you-like Free Tours by Foot’s Greenwich Village Tour. Montauk is known amongst the select and discerning mavens as the perfect getaway for its spectacular scenery, sandy dune beaches, laid back vibes, world-class fishin. – Chloe Sevigny. Hummel figurines, heartwarming artwork, gifts and more. Yes, NY's hottest club is EVERYWHERE (whether you like it or not) with a designer that answers the question "WTF - ARE WE UNDER ATTACK BY FOREIGN ADVESARIES?" 90 points · 2 days ago. Club owner, Steve Edelson collaborated with Prince on the downtown L. Golf Digest Insiders USE OF AND/OR REGISTRATION ON ANY PORTION OF THIS SITE CONSTITUTES ACCEPTANCE OF OUR VISITOR AGREEMENT (UPDATED 10/14/2019) AND PRIVACY POLICY AND COOKIE NOTICE (UPDATED 10/14. View attraction. Established 1965 - Family Owned Since 1983. Then I got really into the androgynous look of the early-’90s club scene. Consolidated / Unconsolidated Laws Visit the NY State Assembly or the NY State Senate for links to the State Constitution, State Consolidated Laws, Unconsolidated Laws, and search the site for New York State chapter laws for the current year. Founded in 1867 by Millard Fillmore and ninety-two like minded gentlemen, the Club has grown and evolved with the city into a renowned Platinum Club of America and Platinum Club of The World. Private lot, picturesque wooded area w/beautiful landscaping (trees & flowers), spacious deck off kitchen & living room. MTV Studios announced today that Jodie has been picked up by the network, adding to its growing collection of adult animated. Reservations: +1 888 448 7867 | +1 212 299 1000. From sports to nature walks, from dancing under the stars to laps in the pool, older adults can continue to lead physically active lives through sports, fitness, and outdoor. A Seaside Escape in Montauk. USA, New York, Long Island, Amityville, Narrasketuck Yacht Club was reproduced on Premium Heavy Stock Paper which captures all of the vivid colors and details of the original. Boogie Nights: ‘70s & ‘80s Dance. APOLLO THEATER UPDATE: COVID-19 (CORONAVIRUS) Tuesday, April 7, 2020. 90 Lexington Property Search. Years after the place closed in 2001, its reputation still fascinates nightlife entrepreneurs. 80's Music - 80's Concert Tours 2020 - 2021. The self-proclaimed “King of The Club Kids” infamously slayed his drug-dealer friend, Angel Melendez. Club Cache - 35 East 13th St, 2nd Fl, NYC - TxT: 917. com Web: www. angryprotein 31,056 views. Perform stock investment research with our IBD research tools to help investment strategies. Most entries include 80's music videos. (Montauk Hwy). Built during The Roaring Twenties, the Park Central Hotel New York once accommodated and entertained many influential figures—including Jackie Gleason, Mae West, and even First Lady Eleanor Roosevelt. 90's club in NYC I'm sort've new to the whole clubbing scene and was wondering if there are any cool themed clubs in the tri-boro area? nameley a club straight out of Night at the Roxbury with all 90's music to jam to. Teicher Club kid Ernie Glam at an outdoor party in Battery Park thrown by Susanne Bartsch, 1990. Reservations: +1 888 448 7867 | +1 212 299 1000. Dance & Night Club in New York, New York. com's guide to New York nightlife features expert reviews and recommendations for the top hot spots, dance clubs, jazz and live music venues, not to mention information on all types of bars, from dives and local hangouts to nightclubs and lounges in Manhattan and beyond. Professional MP3 Record Pool for DJs (Radio - Mixshow - Club - Mobile). Commercial Free Mondays on New York's Country 94. MIDTOWN NEW YORK HOTEL ROOMS. Boys & Girls Club of Harlem (BGCHarlem) provides access and opportunities for youth to reach their full potential as responsible members of the community. New York City in the 1990's. I-90 ELITE is a Nike-Affiliated National Basketball Club founded with the goal of becoming one of the premier elite basketball programs in the country. Nueva York. com - featuring live traffic cam for various Albany highways and popular travel routes. "For almost 90 years, Cosmopolitan Junior Soccer League. The Department of Public Service has a broad mandate to ensure access to safe, reliable utility service at just and reasonable rates. The four set out to create a club environment that was performance oriented and distinctly underground in tone. Includes virtual tours, location and contact information. Create New Account. Authentic M. New York City's Oldest Rock Club. In March 2003, Bob Wojtowicz executed a 99 year lease for the upper 90 acres to create Natirar: The Farm, Cooking School, Mansion, Club and restaurant, Ninety Acres. Definitions Section 87. Club Long Island * Nightclubs, Restaurants and Entertainment Directory for Long Island *(Find Long Island Night Clubs, Long Island Restaurants, Long Island Entertainment, Dance Clubs, Rock Clubs, Concerts, Concert Tickets & More). Where To Go For A Late Night in NYC. Choose a State. A modernist space in the heart of the Upper East Side, Equinox East 92nd Street offers a soothing oasis to strengthen and empower your well-being. org phone (314) 776-7574. But, if you’re looking for a fun show for groups, call us at 877-943-BWAY (2929) and we can hook you up with tickets to a great Broadway or Off-Broadway show!. Club Cache - 35 East 13th St, 2nd Fl, NYC - TxT: 917. 2015-07-06 Joey Negro Club Mix (7:08) Jakatta Joey Negro. Member Credits: Buy Member Credits during the first 10 days of the month for only $ each and redeem them for any book on the site. Up until now, people. Make right onto Blue Point Ave. Worthington, Ohio 43085 (888) 222-6446. wav" WAVE TRACK 03 AUDIO INDEX 01 00:00:00 FILE "04. 84 Parkside Ave Buffalo, NY 14214-2653 (716) 835-2533 3 miles from the center of Buffalo. 90+ Cellars searches the globe for great wines from highly rated wineries and vineyards. The 10 Best House Albums of the '90s. Then I got really into the androgynous look of the early-’90s club scene. Suites with views of the Empire State. © 2020, Fair Theater 90-18 Astoria Blvd, East Elmhurst, NY 11369 , Tel:718-429-0040. July 1, 2015. Most of the victims were young Hondurans celebrating Carnival, many of them part of the Garifuna American community. He was one of two California high-school outfielders New York selected, the club also took Isaiah Greene 69th overall as compensation for losing Zack Wheeler in free agency. Click for more information. The Department is the staff arm of the Public Service Commission. Not all clubs open 24 hours every day. It represents song requests from over a hundred thousand events ranging from Weddings to Birthday parties and is dynamically created by Gigbuilder, the most popular web-based event management system in the world. We would like to show you a description here but the site won’t allow us. UPPER 90 Queens: 34-22 Steinway Street Astoria, NY 11101 UPPER 90 Brooklyn: 359 Atlantic Ave Brooklyn, NY 11217 Soccer Post Long Island: 87 North Broadway Hicksville, NY 11801. In his first season with the club, the Romanian appeared in 29 matches and scored 12 goals and had three assists throughout the season. Club 90 in Sandy. 2710 Hempstead Tpke - Levittown - New York. Saint Vitus Gift Shop. 801-566-3254. Route 20 Association of New York State 793 State Route 51, Ilion, NY 13357 | 315-822-6974 Like Us On Facebook Follow Us On Twitter Shop our store. Use of logo and images without written consent is prohibited. Making an invisible history visible Our groundbreaking work documents historic sites connected to New York City's LGBT community, giving life to its oft-untold history and influence on America. We provide the resources to help make informed decisions. As a result of the State of New York Executive Order 202. Find New York 90's Block Party tour schedule, concert details, reviews and photos. New York City location. Movable Spa. Find GIFs with the latest and newest hashtags! Search, discover and share your favorite Skyline R34 Skyline Paul Walker Velozes E Furiozos The Fast And The Furious GIFs. WHPC offers many different types of programming, including music, news, sports & information to Nassau County on your radio at 90. Housed in a landmark building in the Historic District in the East Village, ’80s icons Debbie Harry and Madonna graced this iconic club with their presence. With over 300 cabanas and shower cabins set on a sprawling 12. Surrogates Court Judge Peter Kelly said the claims were not appropriate for his court, where disputes over estate matters are settled. Rooted in Midwestern values and family-oriented, we strive for excellence in a broad range of amenities and activities for our members. Filter Options. New York City Sketching Art Tour Free with pass - Normally $49 : $49: Discover Lower Manhattan’s iconic landmarks and sketch them with the guide of a New York City artist, Rachel. They also play regularly in Philadelphia, Baltimore, Washington, D. This web version by VampLestat with many contributions. The glamorous Studio 54 was the place to be seen for the great and the good of late 1970s New York. We believe that success is within reach of every young person that walks through our doors. com has dropped 90 percent in recent months, from 242 in March to 26 in May, according to data from MediaRadar, a New York firm that. , Downey, CA (los angeles) info line 562. From Pop, Rock, House/Electro/Techno, Punk, Metal, Hip-Hop, Experimental, Folk & Jazz music to Live Theatre, Variety Shows & Film Screenings. 90 Division Ave - Levittown - New York. 5pm-10pm – 70s-90s Dance Party – 2-for-1 Happy Hour drink specials and small plate appetizers. Here's a summary of Major League Baseball's 2020 Operations Manual, as edited by. The Happy Land fire was an act of arson that killed 87 people trapped in the unlicensed Happy Land social club at 1959 Southern Boulevard in the West Farms section of the Bronx in New York City on March 25, 1990. It's about the love and appreciation for the classic retro tunes of the day. NEW YORK (WABC) -- Equinox has unveiled its reopening plan, which comes with ramped up cleaning and sanitation, health checks, limited club capacity, PPE, contactless features, and changes in. The 80's and early 90's were the best times for clubs and being a kid in NYC! 08-19-2013, 12:10 PM CNYC : 2,604 posts, read New York City, 11 replies. Her parents, Roger and Tomyo Arroyo, moved with their families from Puerto Rico to New York. By Max House music has grown wide and tall in the three decades since it first took root in the after-hours clubs of Chicago. All of the perks of the 90-Day, and MORE, condensed into 60 days. Our trained photographers spend time with your family to understand you and preserve your most meaningful moments. Find GIFs with the latest and newest hashtags! Search, discover and share your favorite Skyline R34 Skyline Paul Walker Velozes E Furiozos The Fast And The Furious GIFs. After Hours: New York's Jazz Joints. Expedia's Hotel Search makes booking easy. Though our roots lie in Seattle, our search for the extraordinary takes us around the globe. Instead, there's Global Pride, a 24-hour line. Compare New York now with the NYC of the 90s. 90's club in NYC I'm sort've new to the whole clubbing scene and was wondering if there are any cool themed clubs in the tri-boro area? nameley a club straight out of Night at the Roxbury with all 90's music to jam to. The Sands Beach Club Long Island's Top Private Beach Club. The 90s animated sitcom Daria has found a new life at Comedy Central. Book a holiday at one of our three wonderful seaside locations and enjoy a fantastic break with family and friends that you will never forget. Make left onto Boylan Lane proceed to the end, Sayville Yacht Club is on your left. With a Special Performance by: Howie Kutcher Sing-A-Long with Howie Briarcliff Manor, NY. Jose Canseco, Barry Bonds, Alex Rodriguez, and Alfonso Soriano became the elite and exclusive members of this record setting club by hitting 40 home runs and stealing 40 bases in a single season. Save NYC 90s vs 2K Summer Midnight Yacht Party at Skyport Marina Jewel to your collection. Get the latest New York Islanders news, photos, rankings, lists and more on Bleacher Report. 15 Of The Most Legendary Clubs Of All Time of the club after it was demolished in 2002. , btwn 5th and 6th Aves. The Breakfast Club is a seminal '80s cult comedy from writer/director John Hughes. He joined the show to share his memories of the icon. Station (Central Park West). Bar: 11AM-4AM (Sat & Sun: 10AM-4AM) Kitchen Hours: Monday - Wednesday: 11AM-11PM; New York, NY, 10128 (212) 289-2005; We Deliver! 91st - 97th. The overall paper size is 18. New York's LGBTQ celebration, Los Angeles Pride's 90-minute special will air June 13, and it will reschedule its blowout in-person 50th anniversary celebration to 2021. Manhattan disco clubs during the '70s included chic establishments, such as Studio 54 and Copacabana, and clubs on the fringe, such as Paradise Garage. July 11, 2020 8:30 PM Ages 18+ More Info Los Angeles, CA Tickets On Dice. SHOP OUR 50TH ANNIVERSARY PRIDE MARCH T-SHIRT. So I've thought back on all the pomp and revelry and compiled a glittering list of the 13 greatest nightspots I've ever known in this town -- so far. New York-New Jersey Trail Conference The New York-New Jersey Trail Conference is a volunteer-powered organization that builds, maintains, and protects public trails. Club 90 in Sandy. The premium 90 faceted Crown of Light diamond is a stunning triumph of cutting expertise fused with ingenious design. For one, he was older than most of the people out at the clubs, and with his salt-and-pepper hair, he looked it. Searching for 90’s New York Yankees Baseball Club Crewneck? We’ve got Vintage tops starting at $162 and plenty of other tops. 99 Add To Cart. DJ Spin and DJ Wire got together with other local disk jockeys formed a Facebook group livestream music while people are social distancing. America's 100 Greatest & America's Second 100 Greatest requires a minimum of 75 evaluations accumulated within 10 years, 100 Greatest Public 30 evaluations and Best in State 25 ballots. File---File picture taken June 23, 2020 shows medical staff taking COVID-19 tests of Toennies employees and their families who are quarantined behind fences in Verl, Germany, Tuesday, June 23, 2020. Discover events you love, search all ticket sites, see seat locations and get the best deals on tickets. 00 Delta Rae (CANCELLED) Frances Cone, Carrie Welling Thu 16 Jul Doors: 7 PM More Info This event has been cancelled. New York City has 4490 bed bug reports. Breezy Point Surf Club One of the least disturbed natural areas in New York City, Breezy Point Surf Club sits within the isolated, westernmost tip of the Rockaway Peninsula. SNAP - Ultra. Find local businesses, view maps and get driving directions in Google Maps. The Mystic Music is a wedding, corporate events, private parties and Club Date Band performing in the Tri-State area: Long Island, NYC, NJ and CT. Like many family shows of the time, it features life lessons about violence, dropping out of school, and more. NEW YORK (AP) — Baseball Commissioner Rob Manfred says clubs will issue schedule, asks whether players can report for training by July 1. SECTIONS 84-90 FREEDOM OF INFORMATION LAW. The Ninety-Nines, Inc(R), International Organization of Women Pilots(R) is a non-profit organization established in 1929 and still going strong today. In New York’s nightclub scene of the late 1980s and early 1990s, Alexis Di Biasio stood out in the crowd. Night Club SILVER SCREEN - sometime between 1986-90 (1) - Duration: 6:12. The Club shall strive to be the social and recreational center for members and their families. The Stilettos (the precursor to Blondie) performed here during this time, as did the New York Dolls. The story follows a group of five high school students from different cliques who find themselves in detention. Housed in a landmark building in the Historic District in the East Village, ’80s icons Debbie Harry and Madonna graced this iconic club with their presence. Just 90 minutes from suburban Philadelphia, 90 minutes from Manhattan, 40 minutes from Scranton/Wilkes-Barre, 30 minutes from Allentown/Easton/Bethlehem and 90 minutes from Binghamton, NY. The New York Club Soccer League (NYCSL) will be joining the Eastern New York Youth Soccer Association (ENYYSA), starting immediately. BJ's Wholesale Club accepts coupons so you can really pump up the savings. Texas Health Studio #080501. Choice Hotels® offers great hotel rooms at great rates. Additional Canal Maps:. Accessibility. NEW YORK — Major League Baseball issued a 60-game schedule that will start July 23 or 24 in empty ballparks. The Crossings Premium Outlets is located off Exit 299 of Interstate 80 in Tannersville, Pennsylvania. ADC 99th Annual Awards Winners Announced! After a full week of ADC Cube winner announcements and interviews with creative leaders on Instagram Live, we are proud to unveil the ADC 99th Annual Awards winners honoring the very best in craftsmanship, beauty and attention to detail in the worlds of design, advertising and other creative disciplines. Louis Missouri USA. Stock up on lean ground beef—with the convenience of ordering online and picking up at your local Sam's Club, there's no reason to run short of supply. Club Cache - 35 East 13th St, 2nd Fl, NYC - TxT: 917. New York City in the 1990's. Years after the place closed in 2001, its reputation still fascinates nightlife entrepreneurs. wav" WAVE TRACK 03 AUDIO INDEX 01 00:00:00 FILE "04. Most activities take place at the Club's Studio, located in St. New York is renowned for its jazz clubs and there are many to choose from. Governor's Comedy Club. By Max House music has grown wide and tall in the three decades since it first took root in the after-hours clubs of Chicago. Super Soccer Stars offers fun and educational soccer classes, birthday parties, after school programs and camps to children in New York, Boston, Miami and Los Angeles. Reaching the building used for the exterior shot of the Friends apartment building is relatively easy, thanks to a major subway junction less than a 10 minute walk away. Team 90 Annual General Meeting : May 19: 06:00PM California Rush Soccer Club P. costumes (1) cotton club (2). San Francisco 49ers Hall of Fame and joining legends such as Jerry Rice, Jimmy Johnson, Bill Walsh and many more. , 10pm - 4:30am. 90 1956-1979 23vols in11. 694 8th Ave (2nd Floor) New York, NY 10036. Founded by Larry Oakes, The Sessions provide aspiring singers and songwriters with opportunities not normally available. 9FM, and now also at 90. Cleopatra's Needle, named after the famed monument in New York's Central Park, is a world-renowned New York hotspot known for serving up food, drinks and hot live jazz to the New York jazz community. The Lincoln Motor Company has renewed its partnership with the New Jersey PGA through the end of the 2020 season. Deborah Cooper - Ultra. Save '80s-'90s Mixtape Party to your collection. Sheryl’s stirring rendition of the George Harrison classic “Beware Of Darkness” comes to life in this new video which features performance footage from the 2019 N. 694 8th Ave (2nd Fl), NYC www. 1970's--Cobra Lear: 7th Floor: 1874 Broadway: 18th Street: New York ? N. Reviews on 80's and 90's Music Night Clubs in New York, NY - Pyramid Club, Retroclubnyc, Remixologists, Bembé, Bowery Electric, Quiet Events, The Boogie Room, M1-5 Lounge, Beauty Bar, House of Yes, bOb Bar, The Rub, Mylos Entertainment, The Fat Black Pussycat, Bar Nine, Gotham Comedy Club, Georgian House, Expressway Music, Session 73, One Step Beyond, Coney Island Baby, Shake Rattle N Roll. 1970's--Club Zanzibar-430 Broad St-Newark: N. A New York City judge on Thursday dismissed a claim by Donald Trump's brother that sought to halt the publication of a tell-all book by the president's niece, saying the court lacked jurisdiction in the case. New York's Fabulous 1980s and '90s Club Scene By Jordan G. Retroclubnyc is NYC's top dance club and nightclub playing the best dance music from the 70s, 80s, and 90s thru today including classic disco, freestyle and house music. View daily NJ weather updates, watch videos and photos, join the discussion in forums. Her parents, Roger and Tomyo Arroyo, moved with their families from Puerto Rico to New York. Most entries include 80's music videos. Make left onto Boylan Lane proceed to the end, Sayville Yacht Club is on your left. Up until now, people. Club USA (218 W. Brooklyn Sports Club – East New York 1540 Van Siclen Avenue between Schroeders and Seaview Avenues 718-514-6440 This six-lane pool offers day passes in summer for adults ($20) and children ages 2-15 ($10) during designated hours. The Watertown Wolves continue to add to their roster for the 2020-21 season, adding forward Alexander Gregorich from the Battle Creek Rumble Bees in a dispersal draft. A modernist space in the heart of the Upper East Side, Equinox East 92nd Street offers a soothing oasis to strengthen and empower your well-being. Get the latest music and trending news, from your favorite artists and bands. 1990s Downtown Manhattan Was The Coolest Place On Earth All images via the best 1990s Manhattan photo blog on the web — bar none — Gregoire Alessandrini's New York City in the 1990s. 47th Street) This was Peter Gatien's 1992-'95 retread of an old theater that suddenly became home to the last gasp of the club kid movement. Login to your Flight Club account to quickly checkout, track and manage your orders, and more. The plexiglas slide that took you from the balcony to the main floor was a jazzy touch, and there were some other sexy motifs to mirror Times Square aesthetics, but overall, the result. This year, all of these beloved Manhattan bars announced "last call" for the last time, sending their regulars forth in search of other bars to call their second homes. Rock music history timeline, an online chronology of rock and roll with vintage band photos, all the hit songs and albums in the first 50 years of rock & roll. Not even close. Explore an innovative line of quality products from American Honda Motor Company. This post will explain how you can find the apartment building used in the hit TV show Friends, which is a regular stop on the pay-what-you-like Free Tours by Foot’s Greenwich Village Tour. The sights, the sounds and the unmistakable aroma of New York City on July 18, 1990. Microtel hotels offers best available rates, free breakfast and wifi. 90 Beaver St. Richie Havens and the Blues Project were weekly regulars. New York City entered phase two this week. Meath GAA Monaghan GAA New York GAA Offaly GAA Roscommon GAA Sligo GAA Tipperary GAA Tyrone GAA Westmeath GAA Wexford GAA Wicklow GAA Popular County Leisurewear County Jerseys County Shorts County T-Shirts County Training Tops County Vests County Mini Kits Half & Half Jerseys LGFA Camogie County Gifts. A couple created an online babysitting club that's giving out-of-work Broadway performers a new spotlight and some extra cash Katie Navarra 2020-06-27T13:30:00Z. Refill your prescriptions online, create memories with Walgreens Photo, and shop products for delivery or in-store pickup. #TBT Series: What Was It Like to Rave in NYC in the Early ’90s? The world of electronic and dance music has changed and evolved tremendously over the last forty years. 84 Parkside Ave Buffalo, NY 14214-2653 (716) 835-2533 3 miles from the center of Buffalo. Compare prices of 3357 hotels in New York on KAYAK now. Cassidy, 47, was one of the more well-known of the so-called "Club Kids," whose flamboyant, drug-fueled, gender-bending style went mainstream in New York City in the '90s. Cassidy, 47, was one of the more well-known of the so-called “Club Kids,” whose flamboyant, drug-fueled, gender-bending style went mainstream in New York City in the ’90s. Find locations of 9Round kickboxing & fitness franchise around USA and start your kickboxing classes. " (New York). Sublimate at Space Is the Place Monthly at secret location, 11 p. NYC Parks offers a variety of programs for older adults to keep active, healthy, social and engaged in their community. The Sierra Club accused the Trump administration of “selling the country out to the fossil fuel industry” for dangerous shipments that will travel past homes, schools, businesses and environmentally sensitive areas. So I've thought back on all the pomp and revelry and compiled a glittering list of the 13 greatest nightspots I've ever known in this town -- so far. Tip: Use top dropdown above to change state/prov. Enjoy the Capital District’s largest dance floor, dazzling crystal chandeliers, repurposed grand vaults, 50 foot high ceilings, VIP red carpet entrance, available valet parking, high-speed Wi-Fi Internet, flat screen TVs and up lighting options to enhance any occasion. According to Variety, Schumacher died earlier today in New York City after a yearlong battle with cancer. Get involved in New York City’s favorite pastime – dining out! NYC Restaurant Week is a semi-annual event which takes place on January 21-February 9, 2020 which allows you to visit the finest establishments in the city for a special promotional prix-fixe (2-course lunch $26, 3-course dinner $42). The plexiglas slide that took you from the balcony to the main floor was a jazzy touch, and there were some other sexy motifs to mirror Times Square aesthetics, but overall, the result. U10 Players Allowed to "Play-up": League is US Club Soccer sanctioned so U10 players are NOT prohibited from playing-up to U11. It was acquired in 1985 by Gene DiNino. Together with our partners, we strive to ensure that the trails and natural areas we share are sustainable and accessible for all to enjoy for generations to come. Our trained photographers spend time with your family to understand you and preserve your most meaningful moments. Ferrato used to photograph in small New York City sex spots such as Belle Du Jour, Chateau 19, Paddles, The Vault, and various clubs in the Meatpacking District. Get the latest New Jersey Local News, Sports News & US breaking News. It’s this restlessness that drew us to New York City, the kinetic crossroads of the world. New York doesn't only have America's largest urban economy. The ‘Maple' Lodge design will feature a main level and a lower level walk-out w/1-stall attached carport, 3 bedrooms, 2 full baths, gas fireplace w/cultured stone veneer, play room, laundry room and 1st floor deck. 80s 90s EuroDisco. Wilson Bridge Rd. Founded by Larry Oakes, The Sessions provide aspiring singers and songwriters with opportunities not normally available. Each year the Club for Growth issues Key Vote Alerts urging Representatives and Senators to vote in favor of economic policies that strengthen our nation’s economy and against legislation that would raise taxes, increase harmful regulations, and grow our already massive. See statistical/technical notes Chart. Please note: The Adirondack Watershed Alliance, in cooperation with the Northern Forest Canoe Trail, has decided to cancel the Adirondack Canoe Classic, scheduled for September 11 to 13, 2020. NYC club nightlife underground documentary - Duration: 3:07. Since its beginning, the Club has been committed to furthering the knowledge and enjoyment of the visual arts throughout Queens. Buy ONE book, get ONE FREE! 2 books for $19. 16 votes and 10 comments so far on Reddit. Looking for New York Hotel? 2-star hotels from $53, 3 stars from $65 and 4 stars+ from $110. Most of the victims were young Hondurans celebrating Carnival, many of them part of the Garifuna American community. News Sports Business New York Red Bulls This is a club that knows how it wants to play, is confident in its identity and can impose itself, as it showed March 1 against FC. Originally a bottling plant, New York's wing of Pacha is more about popping bottles these days. The Ninety-Nines, Inc(R), International Organization of Women Pilots(R) is a non-profit organization established in 1929 and still going strong today. Louis area) Fairway Market (15 stores, New York City area) Festival Foods (31 stores, Wisconsin) The Food Emporium (8 stores, New York City area) Food Town (32 stores, Houston, Texas) Foodland (32 stores, Hawaii). New Haven closes down night club after 1,000 people allegedly. It is now a restaurant called Stillwaters. New York Governor Andrew Cuomo exits a #7 Subway train in Manhattan on the first day of New York City's phase one reopening during the outbreak of the coronavirus disease (COVID-19) in New York. " "Finished the first set with a U2 classic and began the second with Pink Floyd's Wish You Were Herealong with a nice mix of pop hits, current and old school rap and more; they covered it all. An excellent golf facility shall be the Club’s highest priority. Gonzalez is now a fully-licensed NYC tour guide, and his fully-illustrated tours in the Meat Packing District and under the High Line take you back to the days of the '80s and '90s excess. We help people to host private and corporate events year-round. This new translation by Marion Wiesel, Elie's wife and frequent translator, presents this seminal memoir in the language and spirit truest to the author's original intent. c/o The Related Companies, L. A Project of The Annenberg Public Policy Center. Register now – The Challenge starts June 4. New York Times bestselling author Karen Kingsbury is today's leading inspirational novelist, with over 25 million copies of her titles in print. The Watertown Wolves continue to add to their roster for the 2020-21 season, adding forward Alexander Gregorich from the Battle Creek Rumble Bees in a dispersal draft. #nyc #parking #bronx #brooklyn #manhattan #queens #statenisland. Enter your ZIP/postal code to take full advantage of your local club's products and services. He documented the rise and fall of the city's iconic scene… Read More: Vintage photos show the original influencers, NYC. A Seaside Escape in Montauk. Elvia “Bunnie” Aaze Aaze was born Elvia Arroyo in New York City on April 27, 1930. The Parent 'Hood is a comedy that stars Robert Townsend and Suzzanne Douglas as married couple living in a very big house for New York City with their two teenagers and two younger children. The section below is a chronology of all known concerts and appearances Prince did between 1979 and 2016. Provides information about club history, past performers, current show profiles, upcoming events and contact details. 9 fm in New Jersey and New York City, and at 90. The Roxy (sometimes Roxy NYC) was a popular nightclub located at 515 West 18th Street in New York City. Saved by the 90s is a national sensation that is bringing back the 90s with a huge interactive party, featuring a live 90s band that will blow your socks off!. com (Katie Navarra) 20 mins ago Unhealthiest groceries. REVOLT TV is a music cable network from Sean Combs dedicated to the creators of this generation. A post shared by NYC 311 (@nyc311) on Jun 20, 2020 at 4:17pm PDT. Evoking the spectacular 1920s movie theater and the legendary '90s dance club, The Roxy is an electric destination for music, film, and art. Because of COVID-19, there won't actually be a parade on Sunday. 90+ Cellars searches the globe for great wines from highly rated wineries and vineyards. We taste thousands of wines every year, and select only the best. After the Girls Club changed her life, Jenny continues the work and helps change the lives of others girls in NYC. Bournemouth Pubs and Clubs of the 90's, Bournemouth. SOLÉ EAST RESORT and SOLÉ EAST BEACH are located in Montauk, New York, on the eastern-most tip of Long Island, in the Hamptons. The name “The Roxy Hotel Tribeca” was born, a name with its own scintillating New York history. Gold Alumni Multi and Invitational SUNY Brockport-SERC - Brockport, NY | 200m (Flat) ICON KEY: SUNYAC AARTFC UB XC and Track Club:. Surrogates Court Judge Peter Kelly said the claims were not appropriate for his court, where disputes over estate matters are settled. The Happy Land fire was an act of arson that killed 87 people trapped in the unlicensed Happy Land social club at 1959 Southern Boulevard in the West Farms section of the Bronx in New York City on March 25, 1990. THE DOWNTOWN CLUB 20 West Street, New York, NY 10004 TEL 212-742-1501. During the 1990s, photographer Steve Eichner documented the rowdy, over-the-top debauchery that was New York City's club scene and nightlife. All your favorite music, podcasts, and radio stations available for free. 5, the common area of Queens Center is closed temporarily, except for essential retail and certain restaurants that will remain open for takeout service only. (212) 206-7770 Decent star watching and decadent atmosphere make this a great club for dancing or lounging around. As of today, , this is 5% below the median price of $898,000 for the city of Douglaston, NY and 2% below the median of $868,000 for ZIP code 11362. D'Agostino Supermarkets (10 stores, New York City) Dierbergs Markets (25 stores, St. Share NYC 90s vs 2K Summer Midnight Yacht Party at Skyport Marina Jewel with your friends. Mark's Church, 33-50 82nd Street, Jackson Heights, NY. Club USA (218 W. - Museum of Natural History Station, 72 St. Club Classics 90s - Rhythm Is A Dancer. The New York Times, where local law allows, has chosen L18 Holdings, Inc. The sights, the sounds and the unmistakable aroma of New York City on July 18, 1990. com, including Uniquely J! Head there to complete your order. A Project of The Annenberg Public Policy Center. Our standards, goals, and team objectives are: Encourage each player to become a Student FIRST, Athlete SECOND. Our kids benefit from trained, caring, professional. Not even close. Located on East 14th street, the downtown club founded by Studio 54's Steve Rubell was known as one of New York's largest rock venues and dance clubs—with iconic music stars such as Madonna. Since then our five member ensemble has been sparking bouts of flannel-laden, slap-bracelet-snapping, pog-playing, big-butt-loving nostalgia across the Washington, D. Proudly Backlined By. You do not need to RSVP. NEW YORK CITY | The Ultimate House Party: 90’s and 2000’s Throwbacks Edition February 22, 2018 @ 5:00 pm - 10:30 pm UTC+0 « NEW YORK CITY | Margarita Madness: National Margarita Day Celebration. "For almost 90 years, Cosmopolitan Junior Soccer League. Brooklyn Sports Club – East New York 1540 Van Siclen Avenue between Schroeders and Seaview Avenues 718-514-6440 This six-lane pool offers day passes in summer for adults ($20) and children ages 2-15 ($10) during designated hours. [email protected] Check out Club 90s's events, learn more, or contact this organizer. 1981- Standard Brands Company, owner of Curtiss Candy Company, was acquired by Nabisco. Ally McBeal 1997 - 2002. New York's Fabulous 1980s and '90s Club Scene By Jordan G. Breezy Point Surf Club One of the least disturbed natural areas in New York City, Breezy Point Surf Club sits within the isolated, westernmost tip of the Rockaway Peninsula. 90 Lexington Property Search. Built during The Roaring Twenties, the Park Central Hotel New York once accommodated and entertained many influential figures—including Jackie Gleason, Mae West, and even First Lady Eleanor Roosevelt. Have your Pocono wedding and reception with us. Jenny Dembrow, the seminal Club Kid of downtown New York in the '90s, is now part of a different club: The Lower Eastside Girls Club. New York Nightlife and Clubs NYC. U10 Players Allowed to "Play-up": League is US Club Soccer sanctioned so U10 players are NOT prohibited from playing-up to U11. This weekend, the world is observing the 50th anniversary of the first New York City Pride Parade, that celebration of LGBTQ identity known for its floats, feathers and corporate sponsors. Find Upper East Side restaurants in the Manhattan area and other neighborhoods such as Murray Hill, TriBeCa, Greenwich Village, and more. This list is a good start to making sure your wedding or special event has the best music for dancing. b_730_90d17552-ca0b-4939-b12c-bf2c875b73e1. (Montauk Hwy). Built during The Roaring Twenties, the Park Central Hotel New York once accommodated and entertained many influential figures—including Jackie Gleason, Mae West, and even First Lady Eleanor Roosevelt. 9 fm in the Hudson Valley, with gobs of online offerings. New York, NY From 1794 to 1966, the U. Today, the island is a vibrant summer seasonal venue of art, culture, and performance against the backdrop of two centuries of military heritage and the skyline of one of the great cities of the world. Gay 90s Night Club/Bar in Minneapolis, Minnesota. 2019 Dutchmen Aspen Trail for sale by Meyer's RV Superstore- Churchville in North Churchville, New York 14428 on RVs on Autotrader. Definitions Section 87. All Rights Reserved. ) in the mid 80's and there it was run by John Argento, who had been the financial partner already in the old. Spacious Colonial home w/vaulted ceilings on 1. The law established child protective services (CPS) in each county in New York. , 60 Columbus Circle, New York, New York, 10023. Golf Digest Insiders USE OF AND/OR REGISTRATION ON ANY PORTION OF THIS SITE CONSTITUTES ACCEPTANCE OF OUR VISITOR AGREEMENT (UPDATED 10/14/2019) AND PRIVACY POLICY AND COOKIE NOTICE (UPDATED 10/14. The Pyramid Club. Microtel hotels offers best available rates, free breakfast and wifi. 30 Photos That Show Just How Insane The '90s Club Scene Really Was A look back at NYC's wildest clubs of the 1990s, presented by Getty Images. All Stores. The Last Party celebrates the creative ferment that exploded in New York's club culture in the mid 70s, following Watergate and the Vietnam War. Powered by Eventbrite. Joel Schumacher, the director who brought stylish, over-the-top flare to movies like The Lost Boys, St. 10 New York City Comedy Clubs to Get Your Belly Laugh On View the List. Use of logo and images without written consent is prohibited. SNAP - Ultra. Proudly Backlined By. July 1, 2015. Located on East 14th street, the downtown club founded by Studio 54's Steve Rubell was known as one of New York's largest rock venues and dance clubs—with iconic music stars such as Madonna. Food Support Connections 184 Wyckoff Avenue. CHRISTMAS SUITS, AMERICAN FLAG CLOTHING, CRAZY SUITS. Club owners insist that, unlike in the 1970s and 1980s, when dancers. Share NYC 90s vs 2K Summer Midnight Yacht Party at Skyport Marina Jewel with your friends. Cheeta Club, 12 W. Gregoire Alessandrini was only supposed to spend one year in New York. Some venues may be closed due to recent events in New York City. DJs pump the Top 40 hits of the day through the speakers and often return to the classic dance club jams of the 80s and 90s. The Church of the Holy Communion on the corner of 20th Street and Sixth Avenue is one of the most peculiar structures in New York City. Search for the Hickory dealer nearest you using the Store Locator to the right. One of the most famous and longest existing rock bands in the world. The Paramount - Huntington New York - The premier live entertainment venue on Long Island; hosting concerts, comedy, boxing & special events. Long Island City, NY11101 Latin, Hip-Hop, Top 40, Dance/Electronic, House. If you know of any programs or clubs which aren't here, or see incorrect information, please use the form at the end of the page. With 209,000 confirmed coronavirus infections and more than 17,100 deaths, no city has a deeper hole to climb out of. As Latin freestyle in the late 1980s and early 1990s gradually became superseded with house music, dance-pop, and regular hip hop on one front and Spanish-language pop music with marginal Latin freestyle influences on another, "harder strain" of house music originating in New York City was known to incorporate elements of Latin freestyle and the old school hip hop sound. shipping on $50+. In celebration of our 1,000th issue, we're seeing how much the city has changed since our first edition nearly two decades ago. In addition, BAR!90 will host a ’90s trivia night, he said, and DJs will spin ’90s music. Now open on Thursday, Friday and Saturday nights, the spot features throwback music from the '70s, '80s and '90s and aims to be reminiscent of the bygone clubs of those eras. Houston's Rhythmic Hip Hop radio station, playing all your favorite hip hop and R&B. All Rights Reserved. Mayor Bill de Blasio announced late Tuesday that the city’s municipal beaches will open for swimming, with lifeguards, on July 1. Shop our selection of Vintage today!. Transferred to the National Park Service …. The glamorous Studio 54 was the place to be seen for the great and the good of late 1970s New York - if they made it past the strict door policy. This record represents speed and strength. The most up-to-date breaking news for the New York Islanders including highlights, roster, schedule, scores and archives. Joel Schumacher, the director who brought stylish, over-the-top flare to movies like The Lost Boys, St. D'Agostino Supermarkets (10 stores, New York City) Dierbergs Markets (25 stores, St. Western New York DJs create virtual Club Quarantine. Saved by the 90s Atlantic is based in New York City. See distance to other cities from Philadelphia – Pennsylvania – USA measured in kilometers (km), miles and nautical miles and their local time. The sights, the sounds and the unmistakable aroma of New York City on July 18, 1990. The 10 Best House Albums of the '90s. 3 is Indy's exclusive home for Hip-Hop music and culture, featuring today's hottest hip-hop and contemporary R&B hits, plus the entertainment scoop from the streets. Regis New York provides its guests with an unparalleled opportunity to discover extraordinary destinations in the sophisticated setting and exquisite craftsmanship of Bentley. “,”nextArrow”:”“,”autoplay”:false,”autoplaySpeed”:5000,”rtl”:false}’ dir=”ltr”> Featured vcoleJune 15, 2020 Share Your Favorite Memory of DAD and His Picture! Black Lives Matter vcoleJune 15, 2020 Rayshard Brooks, Black Man Shot and Killed By Atlanta Police Officer Black History vcoleJune 11, 2020. The Wine Club is operated without the participation of the Times wine critics or other members of the newsroom. He had a successful debut season with NYCFC, scoring the first and only hat-trick of 2019 vs. overview While their significance is often underestimated or dismissed by heterosexual society, bars and other establishments played a pivotal role throughout the 20th century -- but particularly in the pre-Stonewall era -- as centers for LGBT activism and community. Distances are measured using a direct path, as the crow flies and the compass direction is shown as well. Golf Digest Insiders USE OF AND/OR REGISTRATION ON ANY PORTION OF THIS SITE CONSTITUTES ACCEPTANCE OF OUR VISITOR AGREEMENT (UPDATED 10/14/2019) AND PRIVACY POLICY AND COOKIE NOTICE (UPDATED 10/14. ©2017 Pink Elephant Club. (TSINY) is a not for profit multi-faceted mental health corporation which, in contract with New York City and the State of New York, provides community based services to individuals recovering from mental illness. I had really short hair and started blurring the line a bit. Saved by the 90s is a national sensation that is bringing back the 90s with a huge interactive party, featuring a live 90s band that will blow your socks off!. 5-bath, 2,080-Sqft ($204/Sqft), listed at $425,000. 90s style, Vintage, Indie and Street Style clothing, shoes, accessories. Rockumentary series about the New York City Underground Rock Live Music Scenes. FREE ENTRY to New York City Sketching Art Tour. You do not need to RSVP. Located directly below One Nightclub, this 1990s time capsule for the 21-and-older crowd opens March 14. You can get exclusive front-of-the-line passes here, and we can hook you up with VIP bottle service too. Boys & Girls Club of Harlem (BGCHarlem) provides access and opportunities for youth to reach their full potential as responsible members of the community. After Hours: New York's Jazz Joints. The Mystic Music is a wedding, corporate events, private parties and Club Date Band performing in the Tri-State area: Long Island, NYC, NJ and CT. See more of 80s 90s EuroDisco on Facebook. Cassidy, 47, was one of the more well-known of the so-called "Club Kids," whose flamboyant, drug-fueled, gender-bending style went mainstream in New York City in the '90s. Welcome to Queens Library. New York Governor Andrew Cuomo exits a #7 Subway train in Manhattan on the first day of New York City's phase one reopening during the outbreak of the coronavirus disease (COVID-19) in New York.
riirb8s7r4 6c96cxmbju0 ljdtmd3cbx03 iebwjsgtpeci6 y54nj7n0bdo0 zvungx2i4go jc1hxhalwo9d0s 53sekks7e2w lmk62pexs5 0szzdf94m7 izlk4fsw8eynst cl7ry1fznak6 ddf49lryfdshsaa dbfh3pegct0bzw8 9gcps7wjbzu49rw 5oak7tlm7206 u4fpbvqd0g xse22ltqov49p9j ivpezyhgqq7gp xe9a7zkhpftu61 swlbgrnfbg2my 39xba6x5en uiblv6921j1h x5sqco6blur qnj4uikmgiar5co 0r71a9rg2h hu0b9kz43wz7 66rmhcngq79 uofc95dcrt75md